Page 2 of 867 FirstFirst 12341252102502 ... LastLast
Results 11 to 20 of 8668
submit to reddit
  1. #11
    Status: Offline

    Join Date
    Nov 2009
    Posts
    9,797

    Default Full HD Movies 720p, 1080p

    Riley Steele So Fine / 2010 / 720p / 4.37GB











    Download:
    Format                           : Matroska
    File size                        : 4.37 GiB
    Duration                         : 1h 32mn
    Overall bit rate                 : 6 779 Kbps
    Width                            : 1 280 pixels
    Height                           : 720 pixels
    Display aspect ratio             : 16/9
    Frame rate                       : 23.976 fps
    Resolution                       : 24 bits
    Audio
    Format                           : AC-3
    Format/Info                      : Audio Coding 3
    Bit rate                         : 448 Kbps
    Channel(s)                       : 6 channels
    Channel positions                : Front: L C R, Surround: L R, LFE
    Sampling rate                    : 48.0 KHz
    Stream size                      : 296 MiB (7%)
    Language                         : English

    200MB Parts.....interchangeable links (linky sú kombinovateľné)
    Download:
    http://hotfile.com/dl/37003602/2cd7d74/RLSTLSFNRL.part01.rar.html
    http://hotfile.com/dl/37003652/bf061fa/RLSTLSFNRL.part02.rar.html
    http://hotfile.com/dl/37003709/93e9081/RLSTLSFNRL.part03.rar.html
    http://hotfile.com/dl/37003718/05bc284/RLSTLSFNRL.part04.rar.html
    http://hotfile.com/dl/37003795/a52f987/RLSTLSFNRL.part05.rar.html
    http://hotfile.com/dl/37003809/47f48ac/RLSTLSFNRL.part06.rar.html
    http://hotfile.com/dl/37003835/e5aabe6/RLSTLSFNRL.part07.rar.html
    http://hotfile.com/dl/37003884/c9b23c3/RLSTLSFNRL.part08.rar.html
    http://hotfile.com/dl/37004439/42fac23/RLSTLSFNRL.part09.rar.html
    http://hotfile.com/dl/37004448/086668c/RLSTLSFNRL.part10.rar.html
    http://hotfile.com/dl/37004529/a109e70/RLSTLSFNRL.part11.rar.html
    http://hotfile.com/dl/37004569/90046cb/RLSTLSFNRL.part12.rar.html
    http://hotfile.com/dl/37004582/69b35d8/RLSTLSFNRL.part13.rar.html
    http://hotfile.com/dl/37004609/c27a156/RLSTLSFNRL.part14.rar.html
    http://hotfile.com/dl/37004643/ef172aa/RLSTLSFNRL.part15.rar.html
    http://hotfile.com/dl/37004670/95abd95/RLSTLSFNRL.part16.rar.html
    http://hotfile.com/dl/37004699/7fe58c4/RLSTLSFNRL.part17.rar.html
    http://hotfile.com/dl/37004770/e014bba/RLSTLSFNRL.part18.rar.html
    http://hotfile.com/dl/37005446/dc96666/RLSTLSFNRL.part19.rar.html
    http://hotfile.com/dl/37005471/b74ad7b/RLSTLSFNRL.part20.rar.html
    http://hotfile.com/dl/37005538/6c7c1a5/RLSTLSFNRL.part21.rar.html
    http://hotfile.com/dl/37005962/b5cdb69/RLSTLSFNRL.part22.rar.html
    http://hotfile.com/dl/37006051/6761d85/RLSTLSFNRL.part23.rar.html

    200MB Parts.....interchangeable links (linky sú kombinovateľné)
    Download:
    http://rapidshare.com/files/373767240/RLSTLSFNRL.part01.rar
    http://rapidshare.com/files/373767402/RLSTLSFNRL.part02.rar
    http://rapidshare.com/files/373767655/RLSTLSFNRL.part03.rar
    http://rapidshare.com/files/373768350/RLSTLSFNRL.part04.rar
    http://rapidshare.com/files/373768418/RLSTLSFNRL.part05.rar
    http://rapidshare.com/files/373768433/RLSTLSFNRL.part06.rar
    http://rapidshare.com/files/373768549/RLSTLSFNRL.part07.rar
    http://rapidshare.com/files/373768822/RLSTLSFNRL.part08.rar
    http://rapidshare.com/files/373769405/RLSTLSFNRL.part09.rar
    http://rapidshare.com/files/373769490/RLSTLSFNRL.part10.rar
    http://rapidshare.com/files/373769576/RLSTLSFNRL.part11.rar
    http://rapidshare.com/files/373769780/RLSTLSFNRL.part12.rar
    http://rapidshare.com/files/373769926/RLSTLSFNRL.part13.rar
    http://rapidshare.com/files/373770580/RLSTLSFNRL.part14.rar
    http://rapidshare.com/files/373770620/RLSTLSFNRL.part15.rar
    http://rapidshare.com/files/373770684/RLSTLSFNRL.part16.rar
    http://rapidshare.com/files/373770994/RLSTLSFNRL.part17.rar
    http://rapidshare.com/files/373771084/RLSTLSFNRL.part18.rar
    http://rapidshare.com/files/373771762/RLSTLSFNRL.part19.rar
    http://rapidshare.com/files/373771865/RLSTLSFNRL.part20.rar
    http://rapidshare.com/files/373771894/RLSTLSFNRL.part21.rar
    http://rapidshare.com/files/373772071/RLSTLSFNRL.part22.rar
    http://rapidshare.com/files/373772113/RLSTLSFNRL.part23.rar

    1.5GB Parts
    Download:
    http://extabit.com/file/28edw5x5mn8a7/
    http://extabit.com/file/28edw5x5mn8an/
    http://extabit.com/file/28edw5x5mn89r/
    Enjoy

  2. #12
    Status: Offline

    Join Date
    Nov 2009
    Posts
    9,797

    Default

    Not Really The Dukes Of Hazzard / 2010 / 720p / 4.37GB











    Download:
    Format                           : Matroska
    File size                        : 4.37 GiB
    Duration                         : 2h 13mn
    Overall bit rate                 : 4 707 Kbps
    Width                            : 1 280 pixels
    Height                           : 720 pixels
    Display aspect ratio             : 16/9
    Frame rate                       : 29.970 fps
    Resolution                       : 24 bits
    Audio
    Format                           : AC-3
    Format/Info                      : Audio Coding 3
    Bit rate                         : 256 Kbps
    Channel(s)                       : 2 channels
    Channel positions                : L R
    Sampling rate                    : 48.0 KHz
    Stream size                      : 244 MiB (5%)
    Language                         : English

    200MB Parts.....interchangeable links (linky sú kombinovateľné)
    Download:
    http://hotfile.com/dl/36845873/dfd7f64/NTRLTHDKFH.part01.rar.html
    http://hotfile.com/dl/36845884/77045bb/NTRLTHDKFH.part02.rar.html
    http://hotfile.com/dl/36845918/339a534/NTRLTHDKFH.part03.rar.html
    http://hotfile.com/dl/36846495/c36aa08/NTRLTHDKFH.part04.rar.html
    http://hotfile.com/dl/36846847/d08b401/NTRLTHDKFH.part05.rar.html
    http://hotfile.com/dl/36846915/1f39d8d/NTRLTHDKFH.part06.rar.html
    http://hotfile.com/dl/36846933/8b47d8c/NTRLTHDKFH.part07.rar.html
    http://hotfile.com/dl/36846950/cb79d69/NTRLTHDKFH.part08.rar.html
    http://hotfile.com/dl/36847453/e026e11/NTRLTHDKFH.part09.rar.html
    http://hotfile.com/dl/36847844/2a94a1d/NTRLTHDKFH.part10.rar.html
    http://hotfile.com/dl/36847865/24b7f71/NTRLTHDKFH.part11.rar.html
    http://hotfile.com/dl/36847901/c46c124/NTRLTHDKFH.part12.rar.html
    http://hotfile.com/dl/36847932/fc09b04/NTRLTHDKFH.part13.rar.html
    http://hotfile.com/dl/36848391/b217e2a/NTRLTHDKFH.part14.rar.html
    http://hotfile.com/dl/36848726/62c9e5c/NTRLTHDKFH.part15.rar.html
    http://hotfile.com/dl/36848784/0be753c/NTRLTHDKFH.part16.rar.html
    http://hotfile.com/dl/36848822/cd3ee50/NTRLTHDKFH.part17.rar.html
    http://hotfile.com/dl/36848890/4a79f79/NTRLTHDKFH.part18.rar.html
    http://hotfile.com/dl/36849411/cab6ab9/NTRLTHDKFH.part19.rar.html
    http://hotfile.com/dl/36849747/4a649e2/NTRLTHDKFH.part20.rar.html
    http://hotfile.com/dl/36849836/611848a/NTRLTHDKFH.part21.rar.html
    http://hotfile.com/dl/36849902/0fd9492/NTRLTHDKFH.part22.rar.html
    http://hotfile.com/dl/36849941/56cec4c/NTRLTHDKFH.part23.rar.html

    200MB Parts.....interchangeable links (linky sú kombinovateľné)
    Download:
    http://rapidshare.com/files/373369379/NTRLTHDKFH.part01.rar
    http://rapidshare.com/files/373369454/NTRLTHDKFH.part02.rar
    http://rapidshare.com/files/373369647/NTRLTHDKFH.part03.rar
    http://rapidshare.com/files/373370973/NTRLTHDKFH.part04.rar
    http://rapidshare.com/files/373371070/NTRLTHDKFH.part05.rar
    http://rapidshare.com/files/373372044/NTRLTHDKFH.part06.rar
    http://rapidshare.com/files/373372054/NTRLTHDKFH.part07.rar
    http://rapidshare.com/files/373372242/NTRLTHDKFH.part08.rar
    http://rapidshare.com/files/373373029/NTRLTHDKFH.part09.rar
    http://rapidshare.com/files/373373151/NTRLTHDKFH.part10.rar
    http://rapidshare.com/files/373374074/NTRLTHDKFH.part11.rar
    http://rapidshare.com/files/373374487/NTRLTHDKFH.part12.rar
    http://rapidshare.com/files/373374566/NTRLTHDKFH.part13.rar
    http://rapidshare.com/files/373375033/NTRLTHDKFH.part14.rar
    http://rapidshare.com/files/373375252/NTRLTHDKFH.part15.rar
    http://rapidshare.com/files/373376219/NTRLTHDKFH.part16.rar
    http://rapidshare.com/files/373376512/NTRLTHDKFH.part17.rar
    http://rapidshare.com/files/373376506/NTRLTHDKFH.part18.rar
    http://rapidshare.com/files/373377242/NTRLTHDKFH.part19.rar
    http://rapidshare.com/files/373377535/NTRLTHDKFH.part20.rar
    http://rapidshare.com/files/373378883/NTRLTHDKFH.part21.rar
    http://rapidshare.com/files/373379375/NTRLTHDKFH.part22.rar
    http://rapidshare.com/files/373379460/NTRLTHDKFH.part23.rar

    1.5GB Parts
    Download:
    http://extabit.com/file/28edw8jqqq2vj/
    http://extabit.com/file/28edw8jqqq2xb/
    http://extabit.com/file/28edw8jqqqchb/
    Enjoy

  3. #13
    Status: Offline

    Join Date
    Nov 2009
    Posts
    9,797

    Default

    Raven Alexis No Love Lost / 2010 / 720p / 4.38GB











    Download:
    Format                           : Matroska
    File size                        : 4.38 GiB
    Duration                         : 1h 37mn
    Overall bit rate                 : 6 399 Kbps
    Width                            : 1 280 pixels
    Height                           : 720 pixels
    Display aspect ratio             : 16/9
    Frame rate                       : 23.976 fps
    Resolution                       : 24 bits
    Audio
    Format                           : AC-3
    Format/Info                      : Audio Coding 3
    Bit rate                         : 448 Kbps
    Channel(s)                       : 6 channels
    Channel positions                : Front: L C R, Surround: L R, LFE
    Sampling rate                    : 48.0 KHz
    Stream size                      : 314 MiB (7%)
    Language                         : English

    200MB Parts.....interchangeable links (linky sú kombinovateľné)
    Download:
    http://hotfile.com/dl/36668365/a2e4bf5/NLVLSTNLVL.part01.rar.html
    http://hotfile.com/dl/36669193/83ab9d9/NLVLSTNLVL.part02.rar.html
    http://hotfile.com/dl/36669237/9c3183e/NLVLSTNLVL.part03.rar.html
    http://hotfile.com/dl/36669332/2870037/NLVLSTNLVL.part04.rar.html
    http://hotfile.com/dl/36669347/f7dcda0/NLVLSTNLVL.part05.rar.html
    http://hotfile.com/dl/36669432/e9afeb9/NLVLSTNLVL.part06.rar.html
    http://hotfile.com/dl/36670011/a24dd5d/NLVLSTNLVL.part07.rar.html
    http://hotfile.com/dl/36670060/d40a689/NLVLSTNLVL.part08.rar.html
    http://hotfile.com/dl/36670104/13c7697/NLVLSTNLVL.part09.rar.html
    http://hotfile.com/dl/36670158/a9795e5/NLVLSTNLVL.part10.rar.html
    http://hotfile.com/dl/36670213/9f297ab/NLVLSTNLVL.part11.rar.html
    http://hotfile.com/dl/36670748/6ed3c66/NLVLSTNLVL.part12.rar.html
    http://hotfile.com/dl/36670870/779599e/NLVLSTNLVL.part13.rar.html
    http://hotfile.com/dl/36670916/cb56e18/NLVLSTNLVL.part14.rar.html
    http://hotfile.com/dl/36670921/c00550f/NLVLSTNLVL.part15.rar.html
    http://hotfile.com/dl/36671067/72f6ef2/NLVLSTNLVL.part16.rar.html
    http://hotfile.com/dl/36671738/4cd305a/NLVLSTNLVL.part17.rar.html
    http://hotfile.com/dl/36671838/ed3c7b0/NLVLSTNLVL.part18.rar.html
    http://hotfile.com/dl/36671839/e1ecded/NLVLSTNLVL.part19.rar.html
    http://hotfile.com/dl/36671844/f83254c/NLVLSTNLVL.part20.rar.html
    http://hotfile.com/dl/36672129/4dcae08/NLVLSTNLVL.part21.rar.html
    http://hotfile.com/dl/36672614/6aa7888/NLVLSTNLVL.part22.rar.html
    http://hotfile.com/dl/36672621/7905974/NLVLSTNLVL.part23.rar.html

    200MB Parts.....interchangeable links (linky sú kombinovateľné)
    Download:
    http://rapidshare.com/files/372953672/NLVLSTNLVL.part01.rar
    http://rapidshare.com/files/372953677/NLVLSTNLVL.part02.rar
    http://rapidshare.com/files/372953673/NLVLSTNLVL.part03.rar
    http://rapidshare.com/files/372953683/NLVLSTNLVL.part04.rar
    http://rapidshare.com/files/372953670/NLVLSTNLVL.part05.rar
    http://rapidshare.com/files/372954939/NLVLSTNLVL.part06.rar
    http://rapidshare.com/files/372954998/NLVLSTNLVL.part07.rar
    http://rapidshare.com/files/372954997/NLVLSTNLVL.part08.rar
    http://rapidshare.com/files/372955075/NLVLSTNLVL.part09.rar
    http://rapidshare.com/files/372955179/NLVLSTNLVL.part10.rar
    http://rapidshare.com/files/372956230/NLVLSTNLVL.part11.rar
    http://rapidshare.com/files/372956248/NLVLSTNLVL.part12.rar
    http://rapidshare.com/files/372956358/NLVLSTNLVL.part13.rar
    http://rapidshare.com/files/372956473/NLVLSTNLVL.part14.rar
    http://rapidshare.com/files/372956576/NLVLSTNLVL.part15.rar
    http://rapidshare.com/files/372957524/NLVLSTNLVL.part16.rar
    http://rapidshare.com/files/372957638/NLVLSTNLVL.part17.rar
    http://rapidshare.com/files/372957879/NLVLSTNLVL.part18.rar
    http://rapidshare.com/files/372957907/NLVLSTNLVL.part19.rar
    http://rapidshare.com/files/372958028/NLVLSTNLVL.part20.rar
    http://rapidshare.com/files/372959156/NLVLSTNLVL.part21.rar
    http://rapidshare.com/files/372959261/NLVLSTNLVL.part22.rar
    http://rapidshare.com/files/372959546/NLVLSTNLVL.part23.rar

    1.5GB Parts
    Download:
    http://extabit.com/file/28edw8jmcrne7/
    http://extabit.com/file/28edw8jmcrnin/
    http://extabit.com/file/28edw8jmcrnjj/
    Enjoy

  4. #14
    Status: Offline

    Join Date
    Nov 2009
    Posts
    9,797

    Default

    The Replacement / 2010 / 720p / 4.37GB











    Download:
    Format                           : Matroska
    File size                        : 4.37 GiB
    Duration                         : 1h 19mn
    Overall bit rate                 : 7 856 Kbps
    Width                            : 1 280 pixels
    Height                           : 720 pixels
    Display aspect ratio             : 16/9
    Frame rate                       : 23.976 fps
    Resolution                       : 24 bits
    Audio
    Format                           : AC-3
    Format/Info                      : Audio Coding 3
    Bit rate                         : 448 Kbps
    Channel(s)                       : 6 channels
    Channel positions                : Front: L C R, Surround: L R, LFE
    Sampling rate                    : 48.0 KHz
    Stream size                      : 255 MiB (6%)
    Language                         : English

    200MB Parts.....interchangeable links (linky sú kombinovateľné)
    Download:
    http://hotfile.com/dl/36362402/cf097e1/THRPLCMNTR.part01.rar.html
    http://hotfile.com/dl/36362426/830892a/THRPLCMNTR.part02.rar.html
    http://hotfile.com/dl/36362424/35f6eca/THRPLCMNTR.part03.rar.html
    http://hotfile.com/dl/36362425/093d8de/THRPLCMNTR.part04.rar.html
    http://hotfile.com/dl/36362428/d63aa7e/THRPLCMNTR.part05.rar.html
    http://hotfile.com/dl/36363056/591853d/THRPLCMNTR.part06.rar.html
    http://hotfile.com/dl/36363068/c829be1/THRPLCMNTR.part07.rar.html
    http://hotfile.com/dl/36363094/543d7dd/THRPLCMNTR.part08.rar.html
    http://hotfile.com/dl/36363100/846841e/THRPLCMNTR.part09.rar.html
    http://hotfile.com/dl/36363351/91ab088/THRPLCMNTR.part10.rar.html
    http://hotfile.com/dl/36363771/f7f592a/THRPLCMNTR.part11.rar.html
    http://hotfile.com/dl/36363832/e8281d3/THRPLCMNTR.part12.rar.html
    http://hotfile.com/dl/36363837/fb17525/THRPLCMNTR.part13.rar.html
    http://hotfile.com/dl/36363853/4d82a55/THRPLCMNTR.part14.rar.html
    http://hotfile.com/dl/36364042/ae4cad3/THRPLCMNTR.part15.rar.html
    http://hotfile.com/dl/36364484/5e70603/THRPLCMNTR.part16.rar.html
    http://hotfile.com/dl/36364590/32403d4/THRPLCMNTR.part17.rar.html
    http://hotfile.com/dl/36364643/22aa0e5/THRPLCMNTR.part18.rar.html
    http://hotfile.com/dl/36364680/b54d426/THRPLCMNTR.part19.rar.html
    http://hotfile.com/dl/36365023/44847b9/THRPLCMNTR.part20.rar.html
    http://hotfile.com/dl/36365465/62214c7/THRPLCMNTR.part21.rar.html
    http://hotfile.com/dl/36365481/269398b/THRPLCMNTR.part22.rar.html
    http://hotfile.com/dl/36365528/30123d6/THRPLCMNTR.part23.rar.html

    200MB Parts.....interchangeable links (linky sú kombinovateľné)
    Download:
    http://rapidshare.com/files/372203616/THRPLCMNTR.part01.rar
    http://rapidshare.com/files/372203614/THRPLCMNTR.part02.rar
    http://rapidshare.com/files/372203601/THRPLCMNTR.part03.rar
    http://rapidshare.com/files/372203613/THRPLCMNTR.part04.rar
    http://rapidshare.com/files/372203607/THRPLCMNTR.part05.rar
    http://rapidshare.com/files/372204959/THRPLCMNTR.part06.rar
    http://rapidshare.com/files/372205286/THRPLCMNTR.part07.rar
    http://rapidshare.com/files/372205328/THRPLCMNTR.part08.rar
    http://rapidshare.com/files/372205363/THRPLCMNTR.part09.rar
    http://rapidshare.com/files/372205419/THRPLCMNTR.part10.rar
    http://rapidshare.com/files/372206508/THRPLCMNTR.part11.rar
    http://rapidshare.com/files/372206588/THRPLCMNTR.part12.rar
    http://rapidshare.com/files/372206854/THRPLCMNTR.part13.rar
    http://rapidshare.com/files/372206966/THRPLCMNTR.part14.rar
    http://rapidshare.com/files/372207088/THRPLCMNTR.part15.rar
    http://rapidshare.com/files/372207819/THRPLCMNTR.part16.rar
    http://rapidshare.com/files/372208115/THRPLCMNTR.part17.rar
    http://rapidshare.com/files/372208333/THRPLCMNTR.part18.rar
    http://rapidshare.com/files/372208924/THRPLCMNTR.part19.rar
    http://rapidshare.com/files/372209149/THRPLCMNTR.part20.rar
    http://rapidshare.com/files/372209732/THRPLCMNTR.part21.rar
    http://rapidshare.com/files/372209756/THRPLCMNTR.part22.rar
    http://rapidshare.com/files/372210293/THRPLCMNTR.part23.rar

    1.5GB Parts
    Download:
    http://extabit.com/file/28edw8ji5tstt/
    http://extabit.com/file/28edw8ji5tsy9/
    http://extabit.com/file/28edw8ji5tsxt/
    Enjoy

  5. #15
    Status: Offline

    Join Date
    Nov 2009
    Posts
    9,797

    Default

    Pump My Ass Full Of Cum # 2 / 2010 / 720p / 6.56GB











    Download:
    Format                           : Matroska
    File size                        : 6.56 GiB
    Duration                         : 3h 14mn
    Overall bit rate                 : 4 837 Kbps
    Width                            : 1 280 pixels
    Height                           : 720 pixels
    Display aspect ratio             : 16/9
    Frame rate                       : 29.970 fps
    Resolution                       : 24 bits
    Audio
    Format                           : AC-3
    Format/Info                      : Audio Coding 3
    Bit rate                         : 192 Kbps
    Channel(s)                       : 2 channels
    Channel positions                : L R
    Sampling rate                    : 48.0 KHz

    200MB Parts.....interchangeable links (linky sú kombinovateľné)
    Download:
    http://hotfile.com/dl/36208601/95c3be3/PMPMSF2LFC.part01.rar.html
    http://hotfile.com/dl/36208604/e1cc6be/PMPMSF2LFC.part02.rar.html
    http://hotfile.com/dl/36208622/5434aa6/PMPMSF2LFC.part03.rar.html
    http://hotfile.com/dl/36208655/f10c8cf/PMPMSF2LFC.part04.rar.html
    http://hotfile.com/dl/36208693/bdca001/PMPMSF2LFC.part05.rar.html
    http://hotfile.com/dl/36208751/1379b11/PMPMSF2LFC.part06.rar.html
    http://hotfile.com/dl/36208772/727f3d4/PMPMSF2LFC.part07.rar.html
    http://hotfile.com/dl/36208849/bc4f0d7/PMPMSF2LFC.part08.rar.html
    http://hotfile.com/dl/36208856/4a40ae8/PMPMSF2LFC.part09.rar.html
    http://hotfile.com/dl/36209036/e32a1e4/PMPMSF2LFC.part10.rar.html
    http://hotfile.com/dl/36209563/88494b6/PMPMSF2LFC.part11.rar.html
    http://hotfile.com/dl/36209586/7484342/PMPMSF2LFC.part12.rar.html
    http://hotfile.com/dl/36209603/594abdc/PMPMSF2LFC.part13.rar.html
    http://hotfile.com/dl/36209670/4b69e0f/PMPMSF2LFC.part14.rar.html
    http://hotfile.com/dl/36209692/ad14166/PMPMSF2LFC.part15.rar.html
    http://hotfile.com/dl/36209707/0368dbd/PMPMSF2LFC.part16.rar.html
    http://hotfile.com/dl/36209754/28c020b/PMPMSF2LFC.part17.rar.html
    http://hotfile.com/dl/36209770/e57a2cb/PMPMSF2LFC.part18.rar.html
    http://hotfile.com/dl/36209836/ed3d5bc/PMPMSF2LFC.part19.rar.html
    http://hotfile.com/dl/36209940/892c868/PMPMSF2LFC.part20.rar.html
    http://hotfile.com/dl/36210446/27483e3/PMPMSF2LFC.part21.rar.html
    http://hotfile.com/dl/36210473/0fc2e54/PMPMSF2LFC.part22.rar.html
    http://hotfile.com/dl/36210483/4b18828/PMPMSF2LFC.part23.rar.html
    http://hotfile.com/dl/36210535/9e98772/PMPMSF2LFC.part24.rar.html
    http://hotfile.com/dl/36210585/0039d10/PMPMSF2LFC.part25.rar.html
    http://hotfile.com/dl/36210596/9cfaaaf/PMPMSF2LFC.part26.rar.html
    http://hotfile.com/dl/36210663/46cc28b/PMPMSF2LFC.part27.rar.html
    http://hotfile.com/dl/36210694/2d867ce/PMPMSF2LFC.part28.rar.html
    http://hotfile.com/dl/36210737/6b647b6/PMPMSF2LFC.part29.rar.html
    http://hotfile.com/dl/36210839/1e79560/PMPMSF2LFC.part30.rar.html
    http://hotfile.com/dl/36211308/cd41949/PMPMSF2LFC.part31.rar.html
    http://hotfile.com/dl/36211369/0aec0ec/PMPMSF2LFC.part32.rar.html
    http://hotfile.com/dl/36211400/2cce804/PMPMSF2LFC.part33.rar.html
    http://hotfile.com/dl/36211405/d5c1227/PMPMSF2LFC.part34.rar.html

    200MB Parts.....interchangeable links (linky sú kombinovateľné)
    Download:
    http://rapidshare.com/files/371836148/PMPMSF2LFC.part01.rar
    http://rapidshare.com/files/371836216/PMPMSF2LFC.part02.rar
    http://rapidshare.com/files/371836214/PMPMSF2LFC.part03.rar
    http://rapidshare.com/files/371836241/PMPMSF2LFC.part04.rar
    http://rapidshare.com/files/371836944/PMPMSF2LFC.part05.rar
    http://rapidshare.com/files/371838121/PMPMSF2LFC.part06.rar
    http://rapidshare.com/files/371838255/PMPMSF2LFC.part07.rar
    http://rapidshare.com/files/371838274/PMPMSF2LFC.part08.rar
    http://rapidshare.com/files/371838303/PMPMSF2LFC.part09.rar
    http://rapidshare.com/files/371839064/PMPMSF2LFC.part10.rar
    http://rapidshare.com/files/371839649/PMPMSF2LFC.part11.rar
    http://rapidshare.com/files/371839676/PMPMSF2LFC.part12.rar
    http://rapidshare.com/files/371839691/PMPMSF2LFC.part13.rar
    http://rapidshare.com/files/371839796/PMPMSF2LFC.part14.rar
    http://rapidshare.com/files/371840184/PMPMSF2LFC.part15.rar
    http://rapidshare.com/files/371840556/PMPMSF2LFC.part16.rar
    http://rapidshare.com/files/371840589/PMPMSF2LFC.part17.rar
    http://rapidshare.com/files/371840691/PMPMSF2LFC.part18.rar
    http://rapidshare.com/files/371840724/PMPMSF2LFC.part19.rar
    http://rapidshare.com/files/371841137/PMPMSF2LFC.part20.rar
    http://rapidshare.com/files/371841599/PMPMSF2LFC.part21.rar
    http://rapidshare.com/files/371841614/PMPMSF2LFC.part22.rar
    http://rapidshare.com/files/371841816/PMPMSF2LFC.part23.rar
    http://rapidshare.com/files/371841866/PMPMSF2LFC.part24.rar
    http://rapidshare.com/files/371842219/PMPMSF2LFC.part25.rar
    http://rapidshare.com/files/371842686/PMPMSF2LFC.part26.rar
    http://rapidshare.com/files/371842880/PMPMSF2LFC.part27.rar
    http://rapidshare.com/files/371843052/PMPMSF2LFC.part28.rar
    http://rapidshare.com/files/371843066/PMPMSF2LFC.part29.rar
    http://rapidshare.com/files/371843476/PMPMSF2LFC.part30.rar
    http://rapidshare.com/files/371843744/PMPMSF2LFC.part31.rar
    http://rapidshare.com/files/371843884/PMPMSF2LFC.part32.rar
    http://rapidshare.com/files/371844103/PMPMSF2LFC.part33.rar
    http://rapidshare.com/files/371844190/PMPMSF2LFC.part34.rar

    1.5GB Parts
    Download:
    http://extabit.com/file/28edw8ji23b29/
    http://extabit.com/file/28edw8ji23b35/
    http://extabit.com/file/28edw8ji23b0h/
    http://extabit.com/file/28edw8ji23b3l/
    http://extabit.com/file/28edw8ji23b2p/
    Enjoy

  6. #16
    Status: Offline

    Join Date
    Nov 2009
    Posts
    9,797

    Default

    This Aint Intervention XXX / 2010 / 720p / 4.37GB











    Download:
    Format                           : Matroska
    File size                        : 4.37 GiB
    Duration                         : 1h 53mn
    Overall bit rate                 : 5 535 Kbps
    Width                            : 1 280 pixels
    Height                           : 720 pixels
    Display aspect ratio             : 16/9
    Frame rate                       : 29.970 fps
    Resolution                       : 24 bits
    Audio
    Format                           : AC-3
    Format/Info                      : Audio Coding 3
    Bit rate                         : 224 Kbps
    Channel(s)                       : 2 channels
    Channel positions                : L R
    Sampling rate                    : 48.0 KHz
    Stream size                      : 181 MiB (4%)
    Language                         : English

    200MB Parts.....interchangeable links (linky sú kombinovateľné)
    Download:
    http://hotfile.com/dl/36061251/005b45c/THSNTNTRVN.part01.rar.html
    http://hotfile.com/dl/36061293/97da9c6/THSNTNTRVN.part02.rar.html
    http://hotfile.com/dl/36061377/e6bdee2/THSNTNTRVN.part03.rar.html
    http://hotfile.com/dl/36061685/c82e82d/THSNTNTRVN.part04.rar.html
    http://hotfile.com/dl/36061868/03c0d0d/THSNTNTRVN.part05.rar.html
    http://hotfile.com/dl/36061875/d5c898d/THSNTNTRVN.part06.rar.html
    http://hotfile.com/dl/36061923/c760b76/THSNTNTRVN.part07.rar.html
    http://hotfile.com/dl/36062026/f190dc5/THSNTNTRVN.part08.rar.html
    http://hotfile.com/dl/36062425/020e19f/THSNTNTRVN.part09.rar.html
    http://hotfile.com/dl/36062517/b1beb8c/THSNTNTRVN.part10.rar.html
    http://hotfile.com/dl/36062531/6bcd004/THSNTNTRVN.part11.rar.html
    http://hotfile.com/dl/36062620/105fdb8/THSNTNTRVN.part12.rar.html
    http://hotfile.com/dl/36062734/4cce563/THSNTNTRVN.part13.rar.html
    http://hotfile.com/dl/36063027/08e7473/THSNTNTRVN.part14.rar.html
    http://hotfile.com/dl/36063252/3cd2eac/THSNTNTRVN.part15.rar.html
    http://hotfile.com/dl/36063338/0eb05dc/THSNTNTRVN.part16.rar.html
    http://hotfile.com/dl/36063457/7ace5d0/THSNTNTRVN.part17.rar.html
    http://hotfile.com/dl/36063548/deef140/THSNTNTRVN.part18.rar.html
    http://hotfile.com/dl/36063757/af1d3ac/THSNTNTRVN.part19.rar.html
    http://hotfile.com/dl/36063912/05ceedd/THSNTNTRVN.part20.rar.html
    http://hotfile.com/dl/36064036/29b54cf/THSNTNTRVN.part21.rar.html
    http://hotfile.com/dl/36064133/402aae9/THSNTNTRVN.part22.rar.html
    http://hotfile.com/dl/36064221/8d273eb/THSNTNTRVN.part23.rar.html

    200MB Parts.....interchangeable links (linky sú kombinovateľné)
    Download:
    http://rapidshare.com/files/371500250/THSNTNTRVN.part01.rar
    http://rapidshare.com/files/371500238/THSNTNTRVN.part02.rar
    http://rapidshare.com/files/371500229/THSNTNTRVN.part03.rar
    http://rapidshare.com/files/371500233/THSNTNTRVN.part04.rar
    http://rapidshare.com/files/371500243/THSNTNTRVN.part05.rar
    http://rapidshare.com/files/371501598/THSNTNTRVN.part06.rar
    http://rapidshare.com/files/371501610/THSNTNTRVN.part07.rar
    http://rapidshare.com/files/371501642/THSNTNTRVN.part08.rar
    http://rapidshare.com/files/371501663/THSNTNTRVN.part09.rar
    http://rapidshare.com/files/371501899/THSNTNTRVN.part10.rar
    http://rapidshare.com/files/371502689/THSNTNTRVN.part11.rar
    http://rapidshare.com/files/371502849/THSNTNTRVN.part12.rar
    http://rapidshare.com/files/371502877/THSNTNTRVN.part13.rar
    http://rapidshare.com/files/371502948/THSNTNTRVN.part14.rar
    http://rapidshare.com/files/371503038/THSNTNTRVN.part15.rar
    http://rapidshare.com/files/371504120/THSNTNTRVN.part16.rar
    http://rapidshare.com/files/371504118/THSNTNTRVN.part17.rar
    http://rapidshare.com/files/371504320/THSNTNTRVN.part18.rar
    http://rapidshare.com/files/371504334/THSNTNTRVN.part19.rar
    http://rapidshare.com/files/371504337/THSNTNTRVN.part20.rar
    http://rapidshare.com/files/371505335/THSNTNTRVN.part21.rar
    http://rapidshare.com/files/371505470/THSNTNTRVN.part22.rar
    http://rapidshare.com/files/371505497/THSNTNTRVN.part23.rar

    1.5GB Parts
    Download:
    http://extabit.com/file/28edw8jhskdu7/
    http://extabit.com/file/28edw8jhskdwv/
    http://extabit.com/file/28edw8jhsk4gf/
    Enjoy

  7. #17
    Status: Offline

    Join Date
    Nov 2009
    Posts
    9,797

    Default

    This Aint Dancing With The Stars / 2010 / 720p / 4.38GB











    Download:
    Format                           : Matroska
    File size                        : 4.38 GiB
    Duration                         : 1h 35mn
    Overall bit rate                 : 6 557 Kbps
    Width                            : 1 280 pixels
    Height                           : 720 pixels
    Display aspect ratio             : 16/9
    Frame rate                       : 29.970 fps
    Resolution                       : 24 bits
    Audio
    Format                           : AC-3
    Format/Info                      : Audio Coding 3
    Bit rate                         : 224 Kbps
    Channel(s)                       : 2 channels
    Channel positions                : L R
    Sampling rate                    : 48.0 KHz
    Stream size                      : 153 MiB (3%)
    Language                         : English

    200MB Parts.....interchangeable links (linky sú kombinovateľné)
    Download:
    http://hotfile.com/dl/35898974/a06f05d/THSNTDNCNG.part01.rar.html
    http://hotfile.com/dl/35899082/a7face8/THSNTDNCNG.part02.rar.html
    http://hotfile.com/dl/35899135/9e5462f/THSNTDNCNG.part03.rar.html
    http://hotfile.com/dl/35899147/3205ff6/THSNTDNCNG.part04.rar.html
    http://hotfile.com/dl/35899257/49e9e75/THSNTDNCNG.part05.rar.html
    http://hotfile.com/dl/35899309/d184666/THSNTDNCNG.part06.rar.html
    http://hotfile.com/dl/35899463/b7520f1/THSNTDNCNG.part07.rar.html
    http://hotfile.com/dl/35899512/9abf3f7/THSNTDNCNG.part08.rar.html
    http://hotfile.com/dl/35899566/e5dec6f/THSNTDNCNG.part09.rar.html
    http://hotfile.com/dl/35899763/23dc439/THSNTDNCNG.part10.rar.html
    http://hotfile.com/dl/35900066/8b35fe2/THSNTDNCNG.part11.rar.html
    http://hotfile.com/dl/35900177/0e79eb7/THSNTDNCNG.part12.rar.html
    http://hotfile.com/dl/35900239/d79b66e/THSNTDNCNG.part13.rar.html
    http://hotfile.com/dl/35900348/882425a/THSNTDNCNG.part14.rar.html
    http://hotfile.com/dl/35900383/40610f3/THSNTDNCNG.part15.rar.html
    http://hotfile.com/dl/35900454/0bd6468/THSNTDNCNG.part16.rar.html
    http://hotfile.com/dl/35900622/e9de231/THSNTDNCNG.part17.rar.html
    http://hotfile.com/dl/35900649/a214ee6/THSNTDNCNG.part18.rar.html
    http://hotfile.com/dl/35900691/01e480a/THSNTDNCNG.part19.rar.html
    http://hotfile.com/dl/35900902/f88cb7a/THSNTDNCNG.part20.rar.html
    http://hotfile.com/dl/35901409/1ea091a/THSNTDNCNG.part21.rar.html
    http://hotfile.com/dl/35901488/65a6be7/THSNTDNCNG.part22.rar.html
    http://hotfile.com/dl/35901518/ea80bab/THSNTDNCNG.part23.rar.html

    200MB Parts.....interchangeable links (linky sú kombinovateľné)
    Download:
    http://rapidshare.com/files/371082924/THSNTDNCNG.part01.rar
    http://rapidshare.com/files/371083240/THSNTDNCNG.part02.rar
    http://rapidshare.com/files/371083871/THSNTDNCNG.part03.rar
    http://rapidshare.com/files/371084134/THSNTDNCNG.part04.rar
    http://rapidshare.com/files/371084822/THSNTDNCNG.part05.rar
    http://rapidshare.com/files/371085048/THSNTDNCNG.part06.rar
    http://rapidshare.com/files/371085669/THSNTDNCNG.part07.rar
    http://rapidshare.com/files/371085842/THSNTDNCNG.part08.rar
    http://rapidshare.com/files/371086042/THSNTDNCNG.part09.rar
    http://rapidshare.com/files/371086529/THSNTDNCNG.part10.rar
    http://rapidshare.com/files/371086631/THSNTDNCNG.part11.rar
    http://rapidshare.com/files/371087039/THSNTDNCNG.part12.rar
    http://rapidshare.com/files/371087354/THSNTDNCNG.part13.rar
    http://rapidshare.com/files/371087401/THSNTDNCNG.part14.rar
    http://rapidshare.com/files/371087989/THSNTDNCNG.part15.rar
    http://rapidshare.com/files/371088154/THSNTDNCNG.part16.rar
    http://rapidshare.com/files/371088579/THSNTDNCNG.part17.rar
    http://rapidshare.com/files/371088820/THSNTDNCNG.part18.rar
    http://rapidshare.com/files/371088887/THSNTDNCNG.part19.rar
    http://rapidshare.com/files/371089497/THSNTDNCNG.part20.rar
    http://rapidshare.com/files/371089594/THSNTDNCNG.part21.rar
    http://rapidshare.com/files/371089865/THSNTDNCNG.part22.rar
    http://rapidshare.com/files/371090350/THSNTDNCNG.part23.rar

    1.5GB Parts
    Download:
    http://extabit.com/file/28edw8j92kfwf/
    http://extabit.com/file/28edw8j92kfvz/
    http://extabit.com/file/28edw8j92kftb/
    Enjoy

  8. #18
    Status: Offline

    Join Date
    Nov 2009
    Posts
    9,797

    Default

    SuicideGirls: Guide To Living / 2009 / 720p / 4.38GB










    Download:
    Format                           : Matroska
    File size                        : 4.38 GiB
    Duration                         : 1h 30mn
    Overall bit rate                 : 6 947 Kbps
    Width                            : 1 280 pixels
    Height                           : 720 pixels
    Display aspect ratio             : 16/9
    Frame rate                       : 23.976 fps
    Resolution                       : 24 bits
    Audio
    Format                           : AC-3
    Format/Info                      : Audio Coding 3
    Bit rate                         : 640 Kbps
    Channel(s)                       : 6 channels
    Channel positions                : Front: L C R, Surround: L R, LFE
    Sampling rate                    : 48.0 KHz

    200MB Parts.....interchangeable links (linky sú kombinovateľné)
    Download:
    http://hotfile.com/dl/35583184/98e3273/SCDGRLSGDT.part01.rar.html
    http://hotfile.com/dl/35583198/4840c3f/SCDGRLSGDT.part02.rar.html
    http://hotfile.com/dl/35583460/89a89a5/SCDGRLSGDT.part03.rar.html
    http://hotfile.com/dl/35583995/dec02b9/SCDGRLSGDT.part04.rar.html
    http://hotfile.com/dl/35584018/1e22ed0/SCDGRLSGDT.part05.rar.html
    http://hotfile.com/dl/35584183/5f37240/SCDGRLSGDT.part06.rar.html
    http://hotfile.com/dl/35584212/c250276/SCDGRLSGDT.part07.rar.html
    http://hotfile.com/dl/35584448/272cf62/SCDGRLSGDT.part08.rar.html
    http://hotfile.com/dl/35584962/5712249/SCDGRLSGDT.part09.rar.html
    http://hotfile.com/dl/35584991/162db0b/SCDGRLSGDT.part10.rar.html
    http://hotfile.com/dl/35585125/8ffeeab/SCDGRLSGDT.part11.rar.html
    http://hotfile.com/dl/35585186/303ba4c/SCDGRLSGDT.part12.rar.html
    http://hotfile.com/dl/35585325/107a6bf/SCDGRLSGDT.part13.rar.html
    http://hotfile.com/dl/35585831/233029e/SCDGRLSGDT.part14.rar.html
    http://hotfile.com/dl/35585885/352e6e0/SCDGRLSGDT.part15.rar.html
    http://hotfile.com/dl/35585945/224c073/SCDGRLSGDT.part16.rar.html
    http://hotfile.com/dl/35585978/76be181/SCDGRLSGDT.part17.rar.html
    http://hotfile.com/dl/35586126/cd8d076/SCDGRLSGDT.part18.rar.html
    http://hotfile.com/dl/35586591/83a11fa/SCDGRLSGDT.part19.rar.html
    http://hotfile.com/dl/35586616/f73a7bc/SCDGRLSGDT.part20.rar.html
    http://hotfile.com/dl/35586673/b711270/SCDGRLSGDT.part21.rar.html
    http://hotfile.com/dl/35586745/fc25d7b/SCDGRLSGDT.part22.rar.html
    http://hotfile.com/dl/35586831/08b9821/SCDGRLSGDT.part23.rar.html

    200MB Parts.....interchangeable links (linky sú kombinovateľné)
    Download:
    http://rapidshare.com/files/370302571/SCDGRLSGDT.part01.rar
    http://rapidshare.com/files/370302649/SCDGRLSGDT.part02.rar
    http://rapidshare.com/files/370302798/SCDGRLSGDT.part03.rar
    http://rapidshare.com/files/370304516/SCDGRLSGDT.part04.rar
    http://rapidshare.com/files/370304660/SCDGRLSGDT.part05.rar
    http://rapidshare.com/files/370304730/SCDGRLSGDT.part06.rar
    http://rapidshare.com/files/370304765/SCDGRLSGDT.part07.rar
    http://rapidshare.com/files/370305026/SCDGRLSGDT.part08.rar
    http://rapidshare.com/files/370306209/SCDGRLSGDT.part09.rar
    http://rapidshare.com/files/370306218/SCDGRLSGDT.part10.rar
    http://rapidshare.com/files/370306300/SCDGRLSGDT.part11.rar
    http://rapidshare.com/files/370306367/SCDGRLSGDT.part12.rar
    http://rapidshare.com/files/370306425/SCDGRLSGDT.part13.rar
    http://rapidshare.com/files/370308514/SCDGRLSGDT.part14.rar
    http://rapidshare.com/files/370308687/SCDGRLSGDT.part15.rar
    http://rapidshare.com/files/370308756/SCDGRLSGDT.part16.rar
    http://rapidshare.com/files/370308826/SCDGRLSGDT.part17.rar
    http://rapidshare.com/files/370308963/SCDGRLSGDT.part18.rar
    http://rapidshare.com/files/370310353/SCDGRLSGDT.part19.rar
    http://rapidshare.com/files/370310541/SCDGRLSGDT.part20.rar
    http://rapidshare.com/files/370310959/SCDGRLSGDT.part21.rar
    http://rapidshare.com/files/370310968/SCDGRLSGDT.part22.rar
    http://rapidshare.com/files/370311125/SCDGRLSGDT.part23.rar

    1.5GB Parts
    Download:
    http://extabit.com/file/28edw8j4udwpt/
    http://extabit.com/file/28edw8j4udwq9/
    http://extabit.com/file/28edw8j4udwn5/
    Enjoy

  9. #19
    Status: Offline

    Join Date
    Nov 2009
    Posts
    9,797

    Default

    Southern Belles / 2010 / 1080p / 8.63GB















    Download:
    Format                           : MPEG-4
    Format profile                   : Base Media
    Codec ID                         : isom
    File size                        : 8.63 GiB
    Duration                         : 23mn 48s
    Overall bit rate                 : 9 314 Kbps
    Width                            : 1 920 pixels
    Height                           : 1 080 pixels
    Display aspect ratio             : 16/9
    Resolution                       : 24 bits
    Audio
    Format                           : AAC
    Format/Info                      : Advanced Audio Codec
    Bit rate                         : 128 Kbps
    Channel(s)                       : 2 channels
    Channel positions                : L R
    Sampling rate                    : 48.0 KHz
    Resolution                       : 16 bits

    200MB Parts.....interchangeable links (linky sú kombinovateľné)
    Download:
    http://hotfile.com/dl/35178168/e03edbb/STHERNBLLS.part01.rar.html
    http://hotfile.com/dl/35178163/3ea93ac/STHERNBLLS.part02.rar.html
    http://hotfile.com/dl/35178158/9fcf249/STHERNBLLS.part03.rar.html
    http://hotfile.com/dl/35178169/6d0b5a7/STHERNBLLS.part04.rar.html
    http://hotfile.com/dl/35178159/bf4accf/STHERNBLLS.part05.rar.html
    http://hotfile.com/dl/35178165/f641d17/STHERNBLLS.part06.rar.html
    http://hotfile.com/dl/35178172/e12d608/STHERNBLLS.part07.rar.html
    http://hotfile.com/dl/35178170/2ac4900/STHERNBLLS.part08.rar.html
    http://hotfile.com/dl/35178173/9a6f26e/STHERNBLLS.part09.rar.html
    http://hotfile.com/dl/35178166/8a3d0e9/STHERNBLLS.part10.rar.html
    http://hotfile.com/dl/35179497/f0fe5ea/STHERNBLLS.part11.rar.html
    http://hotfile.com/dl/35179498/6893134/STHERNBLLS.part12.rar.html
    http://hotfile.com/dl/35179504/5009f5f/STHERNBLLS.part13.rar.html
    http://hotfile.com/dl/35179511/eceea3e/STHERNBLLS.part14.rar.html
    http://hotfile.com/dl/35179519/ad69979/STHERNBLLS.part15.rar.html
    http://hotfile.com/dl/35179518/2e2a808/STHERNBLLS.part16.rar.html
    http://hotfile.com/dl/35179528/3a52a06/STHERNBLLS.part17.rar.html
    http://hotfile.com/dl/35179566/0506717/STHERNBLLS.part18.rar.html
    http://hotfile.com/dl/35179608/4135ca5/STHERNBLLS.part19.rar.html
    http://hotfile.com/dl/35179616/71afee0/STHERNBLLS.part20.rar.html
    http://hotfile.com/dl/35180385/70970a1/STHERNBLLS.part21.rar.html
    http://hotfile.com/dl/35180397/b9a252d/STHERNBLLS.part22.rar.html
    http://hotfile.com/dl/35180412/861a46a/STHERNBLLS.part23.rar.html
    http://hotfile.com/dl/35180416/c93e2ed/STHERNBLLS.part24.rar.html
    http://hotfile.com/dl/35180426/67f3b95/STHERNBLLS.part25.rar.html
    http://hotfile.com/dl/35180454/2530a6d/STHERNBLLS.part26.rar.html
    http://hotfile.com/dl/35180461/be4dca6/STHERNBLLS.part27.rar.html
    http://hotfile.com/dl/35180489/f50d3c0/STHERNBLLS.part28.rar.html
    http://hotfile.com/dl/35180502/83ac26c/STHERNBLLS.part29.rar.html
    http://hotfile.com/dl/35180554/def7eb3/STHERNBLLS.part30.rar.html
    http://hotfile.com/dl/35181313/b527944/STHERNBLLS.part31.rar.html
    http://hotfile.com/dl/35181365/6f3c2af/STHERNBLLS.part32.rar.html
    http://hotfile.com/dl/35181367/52cafb1/STHERNBLLS.part33.rar.html
    http://hotfile.com/dl/35181373/8aee9b6/STHERNBLLS.part34.rar.html
    http://hotfile.com/dl/35181437/23850a2/STHERNBLLS.part35.rar.html
    http://hotfile.com/dl/35181453/5b002f8/STHERNBLLS.part36.rar.html
    http://hotfile.com/dl/35181457/68d0346/STHERNBLLS.part37.rar.html
    http://hotfile.com/dl/35181480/41aed55/STHERNBLLS.part38.rar.html
    http://hotfile.com/dl/35181482/b55278a/STHERNBLLS.part39.rar.html
    http://hotfile.com/dl/35181552/cf9b08a/STHERNBLLS.part40.rar.html
    http://hotfile.com/dl/35182253/90d4434/STHERNBLLS.part41.rar.html
    http://hotfile.com/dl/35182312/11c6cd3/STHERNBLLS.part42.rar.html
    http://hotfile.com/dl/35182362/7d4e90f/STHERNBLLS.part43.rar.html
    http://hotfile.com/dl/35182367/f6288cf/STHERNBLLS.part44.rar.html
    http://hotfile.com/dl/35182366/58e2dd2/STHERNBLLS.part45.rar.html

    200MB Parts.....interchangeable links (linky sú kombinovateľné)
    Download:
    http://rapidshare.com/files/369446835/STHERNBLLS.part01.rar
    http://rapidshare.com/files/369446850/STHERNBLLS.part02.rar
    http://rapidshare.com/files/369446855/STHERNBLLS.part03.rar
    http://rapidshare.com/files/369446842/STHERNBLLS.part04.rar
    http://rapidshare.com/files/369446843/STHERNBLLS.part05.rar
    http://rapidshare.com/files/369449099/STHERNBLLS.part06.rar
    http://rapidshare.com/files/369449122/STHERNBLLS.part07.rar
    http://rapidshare.com/files/369449132/STHERNBLLS.part08.rar
    http://rapidshare.com/files/369449180/STHERNBLLS.part09.rar
    http://rapidshare.com/files/369449179/STHERNBLLS.part10.rar
    http://rapidshare.com/files/369450987/STHERNBLLS.part11.rar
    http://rapidshare.com/files/369451026/STHERNBLLS.part12.rar
    http://rapidshare.com/files/369451033/STHERNBLLS.part13.rar
    http://rapidshare.com/files/369451253/STHERNBLLS.part14.rar
    http://rapidshare.com/files/369451287/STHERNBLLS.part15.rar
    http://rapidshare.com/files/369452818/STHERNBLLS.part16.rar
    http://rapidshare.com/files/369452834/STHERNBLLS.part17.rar
    http://rapidshare.com/files/369452970/STHERNBLLS.part18.rar
    http://rapidshare.com/files/369453128/STHERNBLLS.part19.rar
    http://rapidshare.com/files/369453170/STHERNBLLS.part20.rar
    http://rapidshare.com/files/369454272/STHERNBLLS.part21.rar
    http://rapidshare.com/files/369454799/STHERNBLLS.part22.rar
    http://rapidshare.com/files/369454951/STHERNBLLS.part23.rar
    http://rapidshare.com/files/369455101/STHERNBLLS.part24.rar
    http://rapidshare.com/files/369455098/STHERNBLLS.part25.rar
    http://rapidshare.com/files/369455719/STHERNBLLS.part26.rar
    http://rapidshare.com/files/369455948/STHERNBLLS.part27.rar
    http://rapidshare.com/files/369455965/STHERNBLLS.part28.rar
    http://rapidshare.com/files/369456023/STHERNBLLS.part29.rar
    http://rapidshare.com/files/369456046/STHERNBLLS.part30.rar
    http://rapidshare.com/files/369456700/STHERNBLLS.part31.rar
    http://rapidshare.com/files/369456803/STHERNBLLS.part32.rar
    http://rapidshare.com/files/369456819/STHERNBLLS.part33.rar
    http://rapidshare.com/files/369456947/STHERNBLLS.part34.rar
    http://rapidshare.com/files/369457000/STHERNBLLS.part35.rar
    http://rapidshare.com/files/369457591/STHERNBLLS.part36.rar
    http://rapidshare.com/files/369457633/STHERNBLLS.part37.rar
    http://rapidshare.com/files/369457644/STHERNBLLS.part38.rar
    http://rapidshare.com/files/369457708/STHERNBLLS.part39.rar
    http://rapidshare.com/files/369457813/STHERNBLLS.part40.rar
    http://rapidshare.com/files/369458468/STHERNBLLS.part41.rar
    http://rapidshare.com/files/369458467/STHERNBLLS.part42.rar
    http://rapidshare.com/files/369458550/STHERNBLLS.part43.rar
    http://rapidshare.com/files/369458652/STHERNBLLS.part44.rar
    http://rapidshare.com/files/369458706/STHERNBLLS.part45.rar

    1.5GB Parts
    Download:
    http://extabit.com/file/28edw8ivu8kj3/
    http://extabit.com/file/28edw8ivu8kgf/
    http://extabit.com/file/28edw8ivu8kgv/
    http://extabit.com/file/28edw8ivu8ki7/
    http://extabit.com/file/28edw8ivu8kin/
    http://extabit.com/file/28edw8ivu8kjj/
    Enjoy

  10. #20
    Status: Offline

    Join Date
    Nov 2009
    Posts
    9,797

    Default

    A girl a boy and a toy / 2010 / 720p / 10.59GB















    Download:
    Format                           : MPEG-4
    Format profile                   : Base Media
    Codec ID                         : isom
    File size                        : 10.59 GiB
    Overall bit rate                 : 9 184 Kbps
    Width                            : 1 920 pixels
    Height                           : 1 080 pixels
    Display aspect ratio             : 16/9
    Resolution                       : 24 bits
    Audio
    Format                           : AAC
    Format/Info                      : Advanced Audio Codec
    Bit rate                         : 128 Kbps
    Channel(s)                       : 2 channels
    Channel positions                : L R
    Sampling rate                    : 48.0 KHz
    Resolution                       : 16 bits

    200MB Parts.....interchangeable links (linky sú kombinovateľné)
    Download:
    http://hotfile.com/dl/35017570/6b50bf8/GRLBNDTGRL.part01.rar.html
    http://hotfile.com/dl/35017580/2d04020/GRLBNDTGRL.part02.rar.html
    http://hotfile.com/dl/35017581/f5bbcf9/GRLBNDTGRL.part03.rar.html
    http://hotfile.com/dl/35017568/5fcfaae/GRLBNDTGRL.part04.rar.html
    http://hotfile.com/dl/35017566/7f1b412/GRLBNDTGRL.part05.rar.html
    http://hotfile.com/dl/35017569/84020dc/GRLBNDTGRL.part06.rar.html
    http://hotfile.com/dl/35017576/c1b2196/GRLBNDTGRL.part07.rar.html
    http://hotfile.com/dl/35017571/06e119e/GRLBNDTGRL.part08.rar.html
    http://hotfile.com/dl/35017578/518914b/GRLBNDTGRL.part09.rar.html
    http://hotfile.com/dl/35017573/5b02341/GRLBNDTGRL.part10.rar.html
    http://hotfile.com/dl/35018678/5c06b60/GRLBNDTGRL.part11.rar.html
    http://hotfile.com/dl/35018689/74166ae/GRLBNDTGRL.part12.rar.html
    http://hotfile.com/dl/35018690/33c283f/GRLBNDTGRL.part13.rar.html
    http://hotfile.com/dl/35018696/5d8a014/GRLBNDTGRL.part14.rar.html
    http://hotfile.com/dl/35018700/07c6b9d/GRLBNDTGRL.part15.rar.html
    http://hotfile.com/dl/35018701/14ca142/GRLBNDTGRL.part16.rar.html
    http://hotfile.com/dl/35018740/09e219e/GRLBNDTGRL.part17.rar.html
    http://hotfile.com/dl/35018821/8529a70/GRLBNDTGRL.part18.rar.html
    http://hotfile.com/dl/35018856/bca33ed/GRLBNDTGRL.part19.rar.html
    http://hotfile.com/dl/35018859/c834042/GRLBNDTGRL.part20.rar.html
    http://hotfile.com/dl/35021056/7c5f5e7/GRLBNDTGRL.part21.rar.html
    http://hotfile.com/dl/35022297/18608eb/GRLBNDTGRL.part22.rar.html
    http://hotfile.com/dl/35022309/937d2f5/GRLBNDTGRL.part23.rar.html
    http://hotfile.com/dl/35022347/5a1fd06/GRLBNDTGRL.part24.rar.html
    http://hotfile.com/dl/35022375/6561c2c/GRLBNDTGRL.part25.rar.html
    http://hotfile.com/dl/35022374/dfbc955/GRLBNDTGRL.part26.rar.html
    http://hotfile.com/dl/35022384/a983914/GRLBNDTGRL.part27.rar.html
    http://hotfile.com/dl/35022397/da3f91e/GRLBNDTGRL.part28.rar.html
    http://hotfile.com/dl/35022469/d7f3463/GRLBNDTGRL.part29.rar.html
    http://hotfile.com/dl/35024750/49a538a/GRLBNDTGRL.part30.rar.html
    http://hotfile.com/dl/35024757/3e9794e/GRLBNDTGRL.part31.rar.html
    http://hotfile.com/dl/35024820/31f6b82/GRLBNDTGRL.part32.rar.html
    http://hotfile.com/dl/35024847/21b246b/GRLBNDTGRL.part33.rar.html
    http://hotfile.com/dl/35024860/22f6482/GRLBNDTGRL.part34.rar.html
    http://hotfile.com/dl/35024868/179c32b/GRLBNDTGRL.part35.rar.html
    http://hotfile.com/dl/35024947/21049de/GRLBNDTGRL.part36.rar.html
    http://hotfile.com/dl/35024993/fe8e595/GRLBNDTGRL.part37.rar.html
    http://hotfile.com/dl/35025023/0144e81/GRLBNDTGRL.part38.rar.html
    http://hotfile.com/dl/35025434/e9bb05f/GRLBNDTGRL.part39.rar.html
    http://hotfile.com/dl/35027755/42507c6/GRLBNDTGRL.part40.rar.html
    http://hotfile.com/dl/35027787/23d7732/GRLBNDTGRL.part41.rar.html
    http://hotfile.com/dl/35027801/dfae09b/GRLBNDTGRL.part42.rar.html
    http://hotfile.com/dl/35027895/a26b017/GRLBNDTGRL.part43.rar.html
    http://hotfile.com/dl/35027914/3d050f8/GRLBNDTGRL.part44.rar.html
    http://hotfile.com/dl/35027936/b675f4e/GRLBNDTGRL.part45.rar.html
    http://hotfile.com/dl/35028022/044ef00/GRLBNDTGRL.part46.rar.html
    http://hotfile.com/dl/35028064/48fcadd/GRLBNDTGRL.part47.rar.html
    http://hotfile.com/dl/35028123/47e1e66/GRLBNDTGRL.part48.rar.html
    http://hotfile.com/dl/35028527/8093022/GRLBNDTGRL.part49.rar.html
    http://hotfile.com/dl/35028886/0f6a074/GRLBNDTGRL.part50.rar.html
    http://hotfile.com/dl/35028986/2f087a1/GRLBNDTGRL.part51.rar.html
    http://hotfile.com/dl/35029015/87a647b/GRLBNDTGRL.part52.rar.html
    http://hotfile.com/dl/35029039/3f344b9/GRLBNDTGRL.part53.rar.html
    http://hotfile.com/dl/35029055/fea8ad2/GRLBNDTGRL.part54.rar.html
    http://hotfile.com/dl/35029102/62541f4/GRLBNDTGRL.part55.rar.html

    200MB Parts.....interchangeable links (linky sú kombinovateľné)
    Download:
    http://rapidshare.com/files/369075751/GRLBNDTGRL.part01.rar
    http://rapidshare.com/files/369075752/GRLBNDTGRL.part02.rar
    http://rapidshare.com/files/369075757/GRLBNDTGRL.part03.rar
    http://rapidshare.com/files/369075763/GRLBNDTGRL.part04.rar
    http://rapidshare.com/files/369075754/GRLBNDTGRL.part05.rar
    http://rapidshare.com/files/369077285/GRLBNDTGRL.part06.rar
    http://rapidshare.com/files/369077531/GRLBNDTGRL.part07.rar
    http://rapidshare.com/files/369077583/GRLBNDTGRL.part08.rar
    http://rapidshare.com/files/369077599/GRLBNDTGRL.part09.rar
    http://rapidshare.com/files/369077717/GRLBNDTGRL.part10.rar
    http://rapidshare.com/files/369078958/GRLBNDTGRL.part11.rar
    http://rapidshare.com/files/369079188/GRLBNDTGRL.part12.rar
    http://rapidshare.com/files/369079319/GRLBNDTGRL.part13.rar
    http://rapidshare.com/files/369079399/GRLBNDTGRL.part14.rar
    http://rapidshare.com/files/369079525/GRLBNDTGRL.part15.rar
    http://rapidshare.com/files/369080710/GRLBNDTGRL.part16.rar
    http://rapidshare.com/files/369080760/GRLBNDTGRL.part17.rar
    http://rapidshare.com/files/369080840/GRLBNDTGRL.part18.rar
    http://rapidshare.com/files/369080910/GRLBNDTGRL.part19.rar
    http://rapidshare.com/files/369081179/GRLBNDTGRL.part20.rar
    http://rapidshare.com/files/369082422/GRLBNDTGRL.part21.rar
    http://rapidshare.com/files/369082533/GRLBNDTGRL.part22.rar
    http://rapidshare.com/files/369082555/GRLBNDTGRL.part23.rar
    http://rapidshare.com/files/369082651/GRLBNDTGRL.part24.rar
    http://rapidshare.com/files/369082802/GRLBNDTGRL.part25.rar
    http://rapidshare.com/files/369084076/GRLBNDTGRL.part26.rar
    http://rapidshare.com/files/369084124/GRLBNDTGRL.part27.rar
    http://rapidshare.com/files/369084315/GRLBNDTGRL.part28.rar
    http://rapidshare.com/files/369084427/GRLBNDTGRL.part29.rar
    http://rapidshare.com/files/369084564/GRLBNDTGRL.part30.rar
    http://rapidshare.com/files/369085354/GRLBNDTGRL.part31.rar
    http://rapidshare.com/files/369085666/GRLBNDTGRL.part32.rar
    http://rapidshare.com/files/369085742/GRLBNDTGRL.part33.rar
    http://rapidshare.com/files/369085789/GRLBNDTGRL.part34.rar
    http://rapidshare.com/files/369086240/GRLBNDTGRL.part35.rar
    http://rapidshare.com/files/369086939/GRLBNDTGRL.part36.rar
    http://rapidshare.com/files/369087242/GRLBNDTGRL.part37.rar
    http://rapidshare.com/files/369087281/GRLBNDTGRL.part38.rar
    http://rapidshare.com/files/369087297/GRLBNDTGRL.part39.rar
    http://rapidshare.com/files/369087674/GRLBNDTGRL.part40.rar
    http://rapidshare.com/files/369088276/GRLBNDTGRL.part41.rar
    http://rapidshare.com/files/369088658/GRLBNDTGRL.part42.rar
    http://rapidshare.com/files/369088815/GRLBNDTGRL.part43.rar
    http://rapidshare.com/files/369088835/GRLBNDTGRL.part44.rar
    http://rapidshare.com/files/369088966/GRLBNDTGRL.part45.rar
    http://rapidshare.com/files/369089583/GRLBNDTGRL.part46.rar
    http://rapidshare.com/files/369089931/GRLBNDTGRL.part47.rar
    http://rapidshare.com/files/369090032/GRLBNDTGRL.part48.rar
    http://rapidshare.com/files/369090196/GRLBNDTGRL.part49.rar
    http://rapidshare.com/files/369090338/GRLBNDTGRL.part50.rar
    http://rapidshare.com/files/369090679/GRLBNDTGRL.part51.rar
    http://rapidshare.com/files/369091087/GRLBNDTGRL.part52.rar
    http://rapidshare.com/files/369091343/GRLBNDTGRL.part53.rar
    http://rapidshare.com/files/369091409/GRLBNDTGRL.part54.rar
    http://rapidshare.com/files/369091613/GRLBNDTGRL.part55.rar

    1.5GB Parts
    Download:
    http://extabit.com/file/28edw8ivp7jjz/
    http://extabit.com/file/28edw8ivp8okf/
    http://extabit.com/file/28edw8ivp7jj3/
    http://extabit.com/file/28edw8ivp7jin/
    http://extabit.com/file/28edw8ivp8ojz/
    http://extabit.com/file/28edw8ivp7jlr/
    http://extabit.com/file/28edw8ivp7jlb/
    http://extabit.com/file/28edw8ivp7jjj/
    Enjoy

Tags for this Thread

Bookmarks

Posting Permissions

  • You may not post new threads
  • You may not post replies
  • You may not post attachments
  • You may not edit your posts
  •  
All times are GMT +2. The time now is 13:31.
Powered by vBulletin®
Copyright © 2018 vBulletin Solutions, Inc. All rights reserved.